Thoroughbreds streaming movie | Anthony Bourdain Parts Unknown - Season 12 | saison 5 complet
ddr WWE The Walking Dead etrg 2018 ITA GREYS ANATOMY The flash ethd the last ship hindi crazy rich asians supernatural arrow the gifted S02e06 it legends of tomorrow Manifest The Purge the walking dead s09e05 The Big Bang Theory The Good Doctor S02E06 mission impossible Fallout dtone Star Trek discovery complete solo recordings pires ncis Game Of Thrones the predator 2018 movies big bang theory Ettv The Good Doctor 0 empire lethal weapon 2160p ita flash bbc beatles 2018 the gifted evo lucifer Legends Of Tomorrow S04E03 mayans survivor DTONE helen keller Supergirl etmovies star trek discovery español ita 2018 Incredibles 2 mission impossible fgt great british bake off s09e10 venom Vikings diners dives 15 arrow español gotham 1080p YIFY titans Outlander nfl manifest S01E06 south park BULL 
Warning! Do not Download Without a VPN!
Your IP Address is .   Location is
Download and surf securely, stream unlimited and protect your personal data!
We strongly recommend using SpyOFF VPN!
Become Anonymous with SpyOFF
ETTV Recommended TV Shows
Greys.Anatomy.S15E07.HDTV.x264-KILLERS[ettv] torrent
American.Horror.Story.S08E09.WEBRip.x264-TBS[ettv] torrent
Chicago.PD.S06E07.HDTV.x264-SVA[ettv] torrent
SEAL.Team.S02E06.WEBRip.x264-PBS[ettv] torrent

ETTV Recommended Xvid
Mission.Impossible.Fallout.2018.HDRip.XViD.AC3-ETRG torrent
Watch.If.You.Dare.2018.HDRip.XviD.AC3-EVO torrent
Temple.2018.HDRip.XviD.AC3-EVO torrent
Zoe.2018.BRRip.XviD.AC3-EVO torrent

ETTV Recommended HD
Crazy.Rich.Asians.2018.1080p.WEB-DL.DD5.1.H264-CMRG[EtHD] torrent
Alone.We.Fight.2018.1080p.WEB-DL.H264.AAC-EVO[EtHD] torrent
Dog.Days.2018.1080p.WEB-DL.H264.AC3-EVO[EtHD] torrent
Mission.Impossible.Fallout.2018.1080p.WEB-DL.DD5.1.H264-CMRG[EtHD] torrent

ETTV Recommended UHD
Men.in.Black.2.2002.Multi.UHD.2160p.Bluray.x265.HDR.Atmos.7.1-DTOne torrent
Men.In.Black.3.2012.Multi.UHD.2160p.Bluray.x265.HDR.Atmos.7.1-DTOne torrent
Saving.Private.Ryan.1998.Multi.UHD.2160p.BluRay.x265.HDR.Atmos.7.1-DTOne torrent
Incredibles.2.2018.Multi.UHD.2160p.BluRay.Remux.HEVC.HDR.Atmos.7.1-DTOne torrent

ETTV Recommended Cam
Replicas 2018.HDCAM.x264.AC3-ETRG torrent
Bohemian Rhapsody 2018 HDCAM.XViD.AC3-ETRG torrent
The Nutcracker and the Four Realms 2018 HDCAM x264 AC3-ETRG torrent
The.House.with.a.Clock.in.Its.Walls.2018.NEW HDCAM.XViD.AC3-ETRG torrent

ETTV Recommended Foreign
NOTA (2018) [TAMIL(HQ)+TELUGU - 720p - HDRip - x264 - AAC - ESub - 2GB] - MAZE torrent
Street Lights (2018) [MALAYALAM - 720p - WEB HDRip - x264 - AAC - ESub - 2GB] - MAZE torrent
Qismat.(2018).1-3.Desi.Pre.Rip.x264.AAC.2.0-DTOne torrent
Co Co Kokila (2018) 1080p WEB-HD AVC AAC-DTOne torrent

Social


Download Torrent "Karenjit Kaur (2018) HINDI SEASON 2 S02 COMPLETE 1080p WEB-DL x264 FLASH Ka..."

IMDB Details
Description:

N/A

Genre:

N/A

Download Torrent (Magnet)
Download Torrent (File)
Seeds: 571
Leechers: 671
Completed: 2,178 
Last Checked: 18-09-2018 00:48:57


Loading...
Details
Title:Karenjit Kaur (2018) HINDI SEASON 2 S02 COMPLETE 1080p WEB-DL x264 FLASH Ka...
Description:
Karenjit Kaur (2018) HINDI SEASON 2 S02 COMPLETE 1080p WEB-DL x264 FLASH KartiKing





[b]INFO :-

Mediainfo :-

CONTAINS ALL 6 EPISODES OF SEASON 2 in PROPER UNTOUCHED HINDI WEB-DL !

Format                                   : Matroska
Format version                           : Version 4
File size                                : 419 MiB
Duration                                 : 20 min 9 s
Overall bit rate                         : 2 906 kb/s
Movie name                               : Karenjit Kaur S02E01 Beat around the Bush 1080p WEB-DL x264 FLASH KartiKing
Encoded date                             : UTC 2018-09-17 22:31:55
Writing application                      : mkvmerge v26.0.0 ('In The Game') 64-bit
Writing library                          : libebml v1.3.6 + libmatroska v1.4.9

Video
ID                                       : 1
Format                                   : AVC
Format/Info                              : Advanced Video Codec
Format profile                           : [email protected]
Format settings                          : CABAC / 4 Ref Frames
Format settings, CABAC                   : Yes
Format settings, RefFrames               : 4 frames
Codec ID                                 : V_MPEG4/ISO/AVC
Duration                                 : 20 min 9 s
Bit rate                                 : 2 839 kb/s
Nominal bit rate                         : 3 000 kb/s
Width                                    : 1 920 pixels
Height                                   : 1 080 pixels
Display aspect ratio                     : 16:9
Frame rate mode                          : Constant
Frame rate                               : 25.000 FPS
Color space                              : YUV
Chroma subsampling                       : 4:2:0
Bit depth                                : 8 bits
Scan type                                : Progressive
Bits/(Pixel*Frame)                       : 0.055
Stream size                              : 409 MiB (98%)
Writing library                          : x264 core 152 r2854 e9a5903
Forced                                   : No

Audio
ID                                       : 2
Format                                   : AAC LC
Format/Info                              : Advanced Audio Codec Low Complexity
Codec ID                                 : A_AAC-2
Duration                                 : 20 min 9 s
Bit rate                                 : 64.3 kb/s
Channel(s)                               : 2 channels
Channel layout                           : L R
Sampling rate                            : 48.0 kHz
Frame rate                               : 46.875 FPS (1024 SPF)
Compression mode                         : Lossy
Stream size                              : 9.28 MiB (2%)
Language                                 : Hindi
Default                                  : Yes
Forced                                   : No



SCREENSHOTS :-
[/b]









[b]KartiKing
[/b]


Category:TV > HD/X264/H264
Lang:Hindi  Hindi
Total Size:2.86 GB
Info Hash:6ec4094bf92cf7e43117fe79fa13e220b7a85b63
Added By:KartiKing
Date Added:18-09-2018 00:48:53

Files

File List: 
 File Size
Karenjit Kaur S02E01 Beat around the Bush 1080p WEB-DL x264 FLASH KartiKing.mkv419 MB
Karenjit Kaur S02E02 Guilty of Doing It our way 1080p WEB-DL x264 FLASH KartiKing.mkv544 MB
Karenjit Kaur S02E03 Is It Happily Ever After 1080p WEB-DL x264 FLASH KartiKing.mkv453 MB
Karenjit Kaur S02E04 The Princess and The Frogs 1080p WEB-DL x264 FLASH KartiKing.mkv482 MB
Karenjit Kaur S02E05 The Last Wish 1080p WEB-DL x264 FLASH KartiKing.mkv515 MB
Karenjit Kaur S02E06 Time to Say Goodbye 1080p WEB-DL x264 FLASH KartiKing.mkv514 MB



Loading...
Comments

There are currently no comments. Be the first one to write something !

Disclaimer: None of the files shown here are actually hosted or transmitted by this server. The links are provided solely by this site's users. The site moderation is also a service provided by the site's users. The administrator of this site (ettv.tv) cannot be held responsible for what its users post, or any other actions of its users. You may not use this site to distribute or download any material when you do not have the legal rights to do so. It is your own responsibility to adhere to these terms.

Sitemap