Featured Apps Games of the Day (2018/11/2) | Alesso - Take My Breath Away (en español) | Mon Premier Journal De Mickey N°3 – Octobre 2018
2160p arrow 2018 movies ita game of thrones house of cards titans s01e04 Supernatural Venom Incredibles 2 Outlander big bang theory español ddr ufc 230 UFC 2018 ITA ncis The Predator alpha Evo 0 the big bang theory s12e07 Empire ettv fabbriciani arrow español survivor Star Trek Discovery The Walking dead damerini Greys Anatomy ethd Doctor Who Supergirl haberkamp ita 2018 star trek discovery español dtone van helsing in mo yang WWE champian fulton It the flash titans seal team vikings blindspot coral egan shameless etrg etmovies venom ita evo office 2019 fgt Lucifer oceans eleven Big Bang Theory NFL Dtone great british bake off s09e10 ray donovan the nun The Equalizer 2 modern family Gotham A Discovery of Witches Outlander S04E01 hindi doctor who s11e05 the big bang theory 
Warning! Do not Download Without a VPN!
Your IP Address is .   Location is
Download and surf securely, stream unlimited and protect your personal data!
We strongly recommend using SpyOFF VPN!
Become Anonymous with SpyOFF
ETTV Recommended TV Shows
Outlander.S04E01.WEB.H264-MEMENTO[ettv] torrent
The.Last.Ship.S05E09.WEBRip.x264-TBS[ettv] torrent
Supergirl.S04E04.WEB.h264-TBS[ettv] torrent
Madam.Secretary.S05E05.WEBRip.x264-PBS[ettv] torrent

ETTV Recommended Xvid
Blood, Sweat And Terrors 2018 DVDRip XViD-ETRG torrent
Robin Hood The Rebellion.HDRip.XviD.AC3-EVO[EtMovies] torrent
Patrick.2018.HDRip.XviD.AC3-EVO[EtMovies] torrent
Maggots.2017.HDRip.XViD-ETRG torrent

ETTV Recommended HD
The Marine 6.Close Quarters.720p.WEB-DL.H264.AC3-EVO[EtHD] torrent
The Hate U Give.2018.1080p.HC.HDRip.X264.AC3-EVO[EtHD] torrent
Generational.Sins.2017.1080p.AMZN.WEB-DL.DDP5.1.H.264-NTb[EtHD] torrent
Robin.Hood.The.Rebellion.2018.1080p.WEB-DL.DD5.1.H264-CMRG[EtHD] torrent

ETTV Recommended UHD
The.Matrix.Revolutions.2003.Multi.mUHD.2160p.x265.HDR.DD.5.1-DTOne torrent
The.Fog.1980.Multi.UHD.2160p.Bluray.x265.HDR.TS.5.1-DTOne torrent
They.Live.1988.Multi.UHD.2160p.Bluray.x265.HDR.DTS.5.1-DTOne torrent
Blade Runner 2049 (2017) 4K UHD BluRay x264 DTS Alien4 torrent

ETTV Recommended Cam
Hunter Killer 2018 HDCAM.XViD.AC3-ETRG torrent
Replicas 2018.HDCAM.x264.AC3-ETRG torrent
Bohemian Rhapsody 2018 HDCAM.XViD.AC3-ETRG torrent
The Nutcracker and the Four Realms 2018 HDCAM x264 AC3-ETRG torrent

ETTV Recommended Foreign
Dans la brume 2018 1080p BluRay DD5.1 x264-SPEED[EtHD] torrent
Sleepy Hollow (1999) 720p BluRay x264 Dual Audio [Hindi DD5.1 - English DD5.1] - ESUB ~ Ranvijay torrent
5 Weddings 2018 PreDvd Hindi 720p x264 AAC - mkvCinemas torrent
Geetha Govindam (2018) 1080p HDTV AVC AAC - DTOne torrent

Social


Download Torrent "X-X-X -Uncensored Season 1 Complete 720p WEB-RIP x264 AC3 2.0 ~ Ranvijay"

IMDB Details
Description:

N/A

Genre:

N/A

Download Torrent (Magnet)
Download Torrent (File)
Seeds: 63
Leechers: 41
Completed: 721 
Last Checked: 27-09-2018 17:18:56


Loading...
Details
Title:X-X-X -Uncensored Season 1 Complete 720p WEB-RIP x264 AC3 2.0 ~ Ranvijay
Description:




Join My Facebook Group

X-X-X -Uncensored Season 1 Complete 720p WEB-RIP x264  AC3 2.0 ~ Ranvijay

Buy RDP Online



General
Format                                   : Matroska
Format version                           : Version 4 / Version 2
File size                                : 286 MiB
Duration                                 : 24 min 2 s
Overall bit rate                         : 1 665 kb/s
Movie name                               : X-X-X S01 E01 ~ Ranvijay

Video
ID                                       : 1
Format                                   : AVC
Format/Info                              : Advanced Video Codec
Duration                                 : 24 min 2 s
Bit rate                                 : 1 500 kb/s
Width                                    : 1 280 pixels
Height                                   : 550 pixels
Display aspect ratio                     : 2.35:1
Original display aspect ratio            : 2.35:1
Frame rate mode                          : Constant
Frame rate                               : 23.900 FPS
Color space                              : YUV
Chroma subsampling                       : 4:2:0
Bit depth                                : 8 bits
Scan type                                : Progressive
Bits/(Pixel*Frame)                       : 0.089
Stream size                              : 253 MiB (88%)
Title                                    : ~Ranvijay~

Audio
ID                                       : 2
Format                                   : AC-3
Format/Info                              : Audio Coding 3
Codec ID                                 : A_AC3
Duration                                 : 24 min 2 s
Bit rate mode                            : Constant
Bit rate                                 : 192 kb/s
Channel(s)                               : 2 channels
Channel positions                        : Front: L R
Sampling rate                            : 48.0 kHz
Frame rate                               : 31.250 FPS (1536 SPF)
Bit depth                                : 16 bits
Compression mode                         : Lossy
Delay relative to video                  : -42 ms
Stream size                              : 33.0 MiB (12%)
Title                                    : ~Ranvijay~
Language                                 : Hindi
Service kind                             : Complete Main
Default                                  : Yes
Forced                                   : No












Don't walk as you are king, walk as you don't care who the king is....!!





[url=http://www.facebook.com/groups/192253191390113/][/url]
Category:TV > HD/X264/H264
Lang:Hindi  Hindi
Total Size:1.26 GB
Info Hash:4e36b4b8579492c739be0c17c137bac2c416d439
Added By:TheFighter
Date Added:27-09-2018 17:18:52

  

Files

File List: 
 File Size
Sample -X-X-X.mkv16 MB
SpecialRDP - Premium & Affordable Web Hosting Solution.url48.00 B
X-X-X S01 E01.mkv286 MB
X-X-X S01 E02.mkv275 MB
X-X-X S01 E03.mkv230 MB
X-X-X S01 E04.mkv309 MB
X-X-X S01 E05.mkv172 MB



Loading...
Comments

There are currently no comments. Be the first one to write something !

Disclaimer: None of the files shown here are actually hosted or transmitted by this server. The links are provided solely by this site's users. The site moderation is also a service provided by the site's users. The administrator of this site (ettv.tv) cannot be held responsible for what its users post, or any other actions of its users. You may not use this site to distribute or download any material when you do not have the legal rights to do so. It is your own responsibility to adhere to these terms.

Sitemap